<?xml version="1.0" standalone="no"?>
<!DOCTYPE svg PUBLIC "-//W3C//DTD SVG 1.1//EN" "http://www.w3.org/Graphics/SVG/1.1/DTD/svg11.dtd" >
<svg xmlns="http://www.w3.org/2000/svg">
<metadata>Generated by IcoMoon</metadata>
<defs>
<font id="icomoon" horiz-adv-x="1024">
<font-face units-per-em="1024" ascent="960" descent="-64" />
<missing-glyph horiz-adv-x="1024" />
<glyph unicode="&#x20;" horiz-adv-x="512" d="" />
<glyph unicode="&#xe900;" glyph-name="arrow-bottom" horiz-adv-x="2175" d="M1087.434-64c-69.907 0.613-133.454 27.342-181.468 70.888l0.229-0.205-877.196 795.639c-16.556 16.425-26.805 39.185-26.805 64.34s10.249 47.915 26.799 64.334l0.006 0.006c16.619 16.127 39.318 26.069 64.34 26.069s47.721-9.942 64.363-26.091l-0.023 0.022 868.135-786.577c16.421-14.251 38.007-22.936 61.621-22.936s45.2 8.685 61.738 23.035l-0.117-0.099 873.572 795.639c16.619 16.127 39.318 26.069 64.34 26.069s47.721-9.942 64.363-26.091l-0.023 0.022c16.556-16.425 26.805-39.185 26.805-64.34s-10.249-47.915-26.799-64.334l-0.006-0.006-880.821-804.701c-48.224-43.735-112.493-70.55-183.024-70.683h-0.027z" />
<glyph unicode="&#xe901;" glyph-name="player" d="M0 448c0 282.77 229.23 512 512 512s512-229.23 512-512c0-282.77-229.23-512-512-512v0c-282.77 0-512 229.23-512 512v0zM680.229 426.057c8.125 4.103 13.599 12.384 13.599 21.943s-5.474 17.84-13.459 21.879l-0.14 0.064-237.714 120.686c-4.151 3.119-9.392 4.994-15.070 4.994-13.249 0-24.113-10.21-25.153-23.191l-0.006-0.089v-248.686c1.046-13.070 11.91-23.28 25.158-23.28 5.678 0 10.919 1.876 15.135 5.041l-0.065-0.047z" />
<glyph unicode="&#xe902;" glyph-name="search" horiz-adv-x="975" d="M461.091 38.545c-0.216 0-0.471-0.001-0.727-0.001-254.653 0-461.091 206.437-461.091 461.091s206.437 461.091 461.091 461.091c254.653 0 461.091-206.437 461.091-461.091 0-0.256 0-0.511-0.001-0.766v0.040c-0.413-254.085-206.278-459.95-460.324-460.364h-0.040zM461.091 887.273c-0.216 0-0.472 0.001-0.727 0.001-214.487 0-388.364-173.876-388.364-388.364s173.876-388.364 388.364-388.364c214.487 0 388.363 173.876 388.364 388.363v0c-0.411 214.066-173.628 387.538-387.557 388.363h-0.079zM223.273 256.727c-1.448-0.2-3.122-0.315-4.822-0.315-9.302 0-17.804 3.424-24.315 9.081l0.045-0.039c-64.027 64.027-103.629 152.48-103.629 250.182 0 195.404 158.406 353.811 353.811 353.811 97.702 0 186.155-39.602 250.182-103.629v0c6.607-6.607 10.694-15.736 10.694-25.818 0-20.165-16.347-36.512-36.512-36.512-10.083 0-19.211 4.087-25.818 10.694v0c-51.105 48.959-120.578 79.101-197.091 79.101s-145.986-30.141-197.193-79.198l0.102 0.097c-50.309-50.5-81.413-120.163-81.413-197.091s31.104-146.591 81.422-197.1l-0.009 0.009c6.644-6.591 10.756-15.724 10.756-25.818s-4.113-19.227-10.754-25.816l-0.002-0.002c-6.344-6.952-15.358-11.374-25.408-11.635l-0.046-0.001zM938.909-64c-9.982 0.147-18.967 4.293-25.449 10.903l-0.006 0.006-194.182 193.455c-6.471 6.669-10.461 15.778-10.461 25.818s3.99 19.149 10.47 25.827l-0.009-0.009c6.591 6.644 15.724 10.756 25.818 10.756s19.227-4.113 25.816-10.754l194.184-194.184c6.428-6.554 10.395-15.541 10.395-25.455s-3.967-18.901-10.401-25.46l0.006 0.006c-6.696-6.718-15.95-10.883-26.177-10.909h-0.005z" />
<glyph unicode="&#xe903;" glyph-name="star" horiz-adv-x="1074" d="M512 942.398c2.512 12.176 13.144 21.2 25.885 21.2s23.373-9.024 25.855-21.029l0.030-0.171 106.645-338.572c3.729-10.329 13.44-17.582 24.847-17.602h352.552c0.217 0.007 0.473 0.010 0.73 0.010 14.296 0 25.885-11.589 25.885-25.885 0-8.756-4.348-16.497-11.002-21.181l-0.082-0.055-285.767-207.078c-6.422-4.869-10.526-12.503-10.526-21.096 0-2.819 0.442-5.535 1.26-8.082l-0.052 0.187 109.234-335.466c0.823-2.416 1.298-5.2 1.298-8.094 0-14.296-11.589-25.885-25.885-25.885-5.745 0-11.053 1.872-15.347 5.038l0.071-0.050-285.767 207.078c-4.121 3.15-9.345 5.048-15.013 5.048s-10.892-1.898-15.073-5.092l0.060 0.044-285.767-207.078c-4.223-3.117-9.531-4.988-15.276-4.988-14.296 0-25.885 11.589-25.885 25.885 0 2.894 0.475 5.678 1.352 8.277l-0.053-0.182 109.234 335.466c0.766 2.36 1.208 5.076 1.208 7.895 0 8.593-4.105 16.227-10.461 21.048l-0.066 0.048-285.767 209.666c-6.736 4.739-11.084 12.48-11.084 21.236 0 14.296 11.589 25.885 25.885 25.885 0.257 0 0.513-0.004 0.768-0.011l-0.037 0.001h352.55c0.304-0.013 0.662-0.020 1.020-0.020 10.449 0 19.48 6.070 23.76 14.876l0.069 0.157z" />
<glyph unicode="&#xe904;" glyph-name="cart" horiz-adv-x="964" d="M929.779 833.255h-687.768l-6.696 42.089c-8.1 48.309-49.604 84.664-99.6 84.664-0.463 0-0.926-0.003-1.387-0.009l0.070 0.001h-83.699c-28 0-50.698-22.698-50.698-50.698s22.698-50.698 50.698-50.698v0h83.699l47.828-294.621 20.088-139.18-55.959-144.919c-2.501-6.118-3.952-13.218-3.952-20.657 0-11.753 3.624-22.661 9.815-31.665l-0.123 0.189 19.131-24.392h588.286c28 0 50.698 22.698 50.698 50.698s-22.698 50.698-50.698 50.698v0h-495.978l30.61 76.525 542.849 47.828c23.178 3.194 41.75 19.838 47.734 41.686l0.094 0.403 74.612 292.708 5.261 28.219zM795.382 526.199l-497.891-43.045-7.652 44.002-28.697 205.183h585.416zM313.752 175.141c-66.037 0-119.57-53.533-119.57-119.57s53.533-119.57 119.57-119.57c66.037 0 119.57 53.533 119.57 119.57v0c0 66.037-53.533 119.57-119.57 119.57v0zM313.752 31.656c-13.207 0-23.914 10.707-23.914 23.914s10.707 23.914 23.914 23.914c13.207 0 23.914-10.707 23.914-23.914v0c0-13.207-10.707-23.914-23.914-23.914v0zM648.549 175.141c-66.037 0-119.57-53.533-119.57-119.57s53.533-119.57 119.57-119.57c66.037 0 119.57 53.533 119.57 119.57v0c0 66.037-53.533 119.57-119.57 119.57v0zM648.549 31.656c-13.207 0-23.914 10.707-23.914 23.914s10.707 23.914 23.914 23.914c13.207 0 23.914-10.707 23.914-23.914v0c0-13.207-10.707-23.914-23.914-23.914v0z" />
<glyph unicode="&#xe905;" glyph-name="download" horiz-adv-x="797" d="M779.764 746.387l-194.194 194.194c-9.969 10.588-24.079 17.182-39.73 17.182-0.212 0-0.424-0.001-0.635-0.004h-488.441c-0.013 0-0.029 0-0.044 0-30.562 0-55.483-24.153-56.717-54.412l-0.004-0.112v-910.471c-0.003-0.222-0.005-0.484-0.005-0.747 0-31.35 25.414-56.764 56.764-56.764 0.002 0 0.003 0 0.005 0h682.666c0.224-0.003 0.488-0.005 0.752-0.005 31.35 0 56.764 25.414 56.764 56.764 0 0.264-0.002 0.528-0.005 0.792v-0.040 715.53c-0.472 15.048-6.971 28.491-17.15 38.066l-0.028 0.026zM681.92 738.918h-98.591c-10.725 0-19.419 8.694-19.419 19.419v0 100.832zM722.252 7.702h-647.562v877.608h414.53v-124.732c-0.002-0.223-0.003-0.486-0.003-0.75 0-51.563 41.8-93.363 93.363-93.363 0.264 0 0.527 0.001 0.79 0.003h138.883zM457.103 331.857l-21.66-21.66v250.958c0 20.625-16.72 37.345-37.345 37.345v0c-20.625 0-37.345-16.72-37.345-37.345v0-250.958l-21.66 21.66c-6.731 6.601-15.96 10.675-26.142 10.675s-19.411-4.074-26.147-10.681l0.006 0.006c-6.823-6.769-11.047-16.149-11.047-26.515s4.224-19.746 11.044-26.513l74.692-74.692c8.908-8.846 21.181-14.312 34.731-14.312s25.823 5.467 34.734 14.315l74.687 74.687c6.823 6.769 11.047 16.149 11.047 26.515s-4.224 19.746-11.044 26.513l-0.002 0.002c-6.538 5.437-15.021 8.736-24.274 8.736s-17.737-3.3-24.336-8.787l0.062 0.050z" />
<glyph unicode="&#xe906;" glyph-name="tel" horiz-adv-x="1023" d="M828.079-64h-10.654c-430.485 48.318-768.83 386.865-816.453 813.247l-0.379 4.178c-0.349 3.314-0.547 7.161-0.547 11.053 0 13.439 2.37 26.324 6.714 38.261l-0.248-0.778c4.754 16.492 12.702 30.76 23.194 42.745l-0.11-0.128c10.816 12.010 24.037 21.627 38.929 28.128l0.728 0.283c14.056 6.358 30.476 10.063 47.762 10.063 0.064 0 0.129 0 0.193 0h135.537c29.927-0.701 57.14-11.773 78.312-29.745l-0.181 0.149c21.31-18.314 35.968-43.842 40.173-72.758l0.076-0.639c5.958-44.237 16.32-84.183 30.838-122.072l-1.242 3.69c4.985-12.596 7.875-27.189 7.875-42.456 0-8.651-0.928-17.086-2.69-25.21l0.142 0.78c-5.007-23.305-16.284-43.446-31.967-59.195l0.004 0.004-40.25-37.29c57.93-93.399 134.707-169.798 225.505-225.594l2.971-1.698 40.842 40.25c15.83 15.544 35.931 26.788 58.382 31.811l0.809 0.152c7.343 1.62 15.778 2.548 24.429 2.548 15.268 0 29.86-2.89 43.26-8.153l-0.804 0.278c34.163-13.197 74.102-23.554 115.523-29.272l2.859-0.323c58.145-8.144 102.405-57.553 102.405-117.298 0-0.381-0.002-0.761-0.005-1.141v0.058-133.179c-0.083-17.354-3.777-33.823-10.37-48.724l0.308 0.779c-6.73-15.645-16.356-28.876-28.305-39.564l-0.107-0.094c-11.876-10.831-26.093-19.323-41.783-24.616l-0.835-0.244c-12.069-4.922-26.054-7.933-40.699-8.284l-0.143-0.003zM253.336 823.861h-134.363c-8.806-0.042-17.144-2.001-24.633-5.479l0.365 0.152c-7.99-3.206-14.732-8.047-20.073-14.146l-0.051-0.060c-5.182-5.862-9.389-12.733-12.276-20.259l-0.154-0.458c-0.691-3.737-1.087-8.037-1.087-12.43s0.395-8.693 1.153-12.867l-0.066 0.437c15.781-140.016 63.073-266.447 134.593-375.57l-2.006 3.26c67.52-104.655 154.008-191.144 255.333-256.647l3.331-2.017c106.152-69.181 232.711-116.418 368.858-132.206l4.044-0.381c1.482-0.132 3.205-0.207 4.946-0.207 15.461 0 29.537 5.928 40.080 15.635l-0.042-0.038c6.197 5.499 11.193 12.201 14.646 19.755l0.151 0.37c2.914 7.183 4.644 15.511 4.735 24.232v133.808c0.016 0.521 0.026 1.135 0.026 1.75 0 14.738-5.386 28.217-14.297 38.578l0.066-0.078c-9.295 10.772-22.288 18.13-36.988 20.092l-0.303 0.033c-49.152 6.768-93.475 18.365-135.527 34.541l4.123-1.394c-5.060 1.412-10.87 2.223-16.869 2.223s-11.81-0.811-17.327-2.331l0.457 0.107c-11.6-2.698-21.626-8.299-29.615-16l0.019 0.018-56.231-59.191c-5.35-5.322-12.726-8.612-20.871-8.612-5.386 0-10.436 1.439-14.786 3.953l0.143-0.076c-117.189 67.042-211.885 161.358-277.475 274.631l-1.905 3.566c-2.307 4.116-3.666 9.033-3.666 14.267 0 8.333 3.444 15.861 8.986 21.24l0.007 0.007 56.231 59.191c7.979 7.569 13.658 17.491 15.922 28.654l0.059 0.35c1.503 4.963 2.368 10.667 2.368 16.573s-0.865 11.61-2.475 16.992l0.108-0.419c-14.862 38.131-26.466 82.666-32.797 128.88l-0.349 3.116c-2.141 14.777-9.47 27.541-20.046 36.632l-0.078 0.066c-10.755 10.984-25.735 17.794-42.307 17.794-0.734 0-1.464-0.013-2.192-0.040l0.105 0.003zM775.399 521.988c-0.101-0.001-0.22-0.002-0.339-0.002-8.040 0-15.283 3.411-20.362 8.864l-0.015 0.017c-5.526 5.196-8.969 12.554-8.969 20.717s3.442 15.521 8.954 20.703l0.015 0.014c4.692 6.434 7.508 14.497 7.508 23.219 0 3.96-0.58 7.784-1.661 11.393l0.072-0.281c-11.37 44.355-45.614 78.6-89.112 89.783l-0.858 0.187c-3.328 1.008-7.152 1.589-11.112 1.589-8.721 0-16.785-2.815-23.332-7.586l0.113 0.079c-5.302-5.302-12.626-8.581-20.717-8.581-16.181 0-29.298 13.117-29.298 29.298 0 8.090 3.279 15.415 8.581 20.717v0c16.659 15.568 39.106 25.127 63.785 25.127 7.823 0 15.422-0.961 22.686-2.77l-0.644 0.136c67.199-17.053 119.086-68.939 135.86-134.849l0.278-1.29c2.619-8.22 4.129-17.674 4.129-27.481 0-22.959-8.273-43.986-22.001-60.262l0.115 0.14c-5.105-5.574-12.415-9.056-20.539-9.056-1.105 0-2.196 0.064-3.267 0.19l0.13-0.012zM935.214 468.717c-0.101-0.001-0.22-0.002-0.339-0.002-8.040 0-15.283 3.411-20.362 8.864l-0.015 0.017c-5.526 5.196-8.969 12.554-8.969 20.717s3.442 15.521 8.954 20.703l0.015 0.014c76.356 76.948 64.518 213.087-26.636 304.832s-227.884 102.992-304.832 26.636c-5.302-5.302-12.626-8.581-20.717-8.581-16.181 0-29.298 13.117-29.298 29.298 0 8.090 3.279 15.415 8.581 20.717v0c99.44 100.032 273.461 87.602 387.699-26.636s126.668-288.259 26.636-387.699c-5.094-5.47-12.338-8.881-20.378-8.881-0.119 0-0.238 0.001-0.357 0.002h0.018z" />
<glyph unicode="&#xe907;" glyph-name="mail-sent" d="M793.6 591.872c5.156-5.833 8.304-13.546 8.304-21.994 0-9.733-4.178-18.489-10.838-24.575l-0.026-0.023-282.624-250.88c-9.255-9.201-22.011-14.889-36.096-14.889s-26.842 5.687-36.098 14.891l0.002-0.002-180.224 179.712c-5.883 5.998-9.513 14.223-9.513 23.296s3.631 17.298 9.519 23.301l-0.005-0.005c6.079 5.913 14.39 9.56 23.552 9.56s17.473-3.646 23.56-9.567l-0.008 0.008 171.52-169.472 272.896 243.2c5.791 5.006 13.394 8.056 21.71 8.056 9.614 0 18.276-4.077 24.352-10.596l0.018-0.020zM512-64c-282.77 0-512 229.23-512 512s229.23 512 512 512c282.77 0 512-229.23 512-512v0c0-282.77-229.23-512-512-512v0zM512 908.8c-254.493 0-460.8-206.307-460.8-460.8s206.307-460.8 460.8-460.8c254.493 0 460.8 206.307 460.8 460.8v0c0 254.493-206.307 460.8-460.8 460.8v0z" />
<glyph unicode="&#xe908;" glyph-name="email" horiz-adv-x="1265" d="M467.426 466.673l-49.995 34.936-106.616-107.219-250.579-237.929v-69.873c-0.141-1.803-0.222-3.904-0.222-6.024s0.081-4.221 0.239-6.3l-0.017 0.277 290.936 277.082zM1203.501 74.541c0.141 1.803 0.222 3.904 0.222 6.024s-0.081 4.221-0.239 6.3l0.017-0.277v69.873l-248.772 237.327-107.219 107.821-49.995-34.936 115.652-115.652zM61.44 824.471c7.702 42.901 44.635 75.067 89.124 75.294h963.789c44.513-0.227 81.446-32.393 89.066-74.741l0.082-0.553-20.48-15.059h81.92c-0.341 83.030-67.558 150.248-150.556 150.588h-963.798c-83.030-0.341-150.248-67.558-150.588-150.556v-0.033h81.92zM632.471 424.508l-550.551 384.904h-81.92v-722.824c0-83.168 67.421-150.588 150.588-150.588v0h963.765c83.168 0 150.588 67.421 150.588 150.588v0 722.824h-83.125zM1114.353-3.765h-963.765c-45.486 0.207-83.018 33.992-89.094 77.833l-0.054 0.473c-0.141 1.803-0.222 3.904-0.222 6.024s0.081 4.221 0.239 6.3l-0.017-0.277v662.588l554.767-388.518c4.879-3.411 10.935-5.45 17.468-5.45s12.589 2.039 17.568 5.516l-0.1-0.066 553.562 388.518v-662.588c0.141-1.803 0.222-3.904 0.222-6.024s-0.081-4.221-0.239-6.3l0.017 0.277c-6.148-44.45-43.893-78.309-89.547-78.309-0.283 0-0.567 0.001-0.85 0.004h0.043z" />
<glyph unicode="&#xe909;" glyph-name="arrow-prev" d="M720.896-64c-0.088-0.001-0.192-0.001-0.296-0.001-14.065 0-26.806 5.671-36.059 14.852l0.003-0.003-424.448 424.96c-18.402 18.509-29.777 44.022-29.777 72.192s11.375 53.683 29.782 72.197l-0.005-0.005 424.448 424.96c9.303 9.303 22.156 15.057 36.352 15.057 28.393 0 51.409-23.017 51.409-51.409 0-14.196-5.754-27.049-15.057-36.352v0l-424.96-424.448 424.96-424.448c9.354-9.28 15.145-22.14 15.145-36.352s-5.791-27.072-15.142-36.349l-0.003-0.003c-9.25-9.177-21.991-14.849-36.056-14.849-0.104 0-0.208 0-0.312 0.001h0.016z" />
<glyph unicode="&#xe90a;" glyph-name="arrow-next" d="M281.6-64c-0.088-0.001-0.192-0.001-0.296-0.001-14.065 0-26.806 5.671-36.059 14.852l0.003-0.003c-9.354 9.28-15.145 22.14-15.145 36.352s5.791 27.072 15.142 36.349l0.003 0.003 424.96 424.448-424.96 424.448c-9.303 9.303-15.057 22.156-15.057 36.352 0 28.393 23.017 51.409 51.409 51.409 14.196 0 27.049-5.754 36.352-15.057v0l424.448-424.96c18.402-18.509 29.777-44.022 29.777-72.192s-11.375-53.683-29.782-72.197l0.005 0.005-424.448-424.96c-9.25-9.177-21.991-14.849-36.056-14.849-0.104 0-0.208 0-0.312 0.001h0.016z" />
<glyph unicode="&#xe90b;" glyph-name="arrow-left" horiz-adv-x="524" d="M445.046-64c-23.101 0.056-43.857 10.048-58.229 25.926l-0.060 0.067-345.797 379.668c-25.609 27.92-41.304 65.297-41.304 106.338s15.694 78.418 41.409 106.455l-0.105-0.116 345.797 379.668c14.557 18.020 36.652 29.448 61.417 29.448 43.503 0 78.769-35.266 78.769-78.769 0-22.017-9.033-41.924-23.596-56.218l-0.012-0.012-345.797-380.455 345.797-380.455c12.584-13.906 20.285-32.436 20.285-52.766 0-23.077-9.924-43.836-25.736-58.243l-0.063-0.056c-13.886-12.656-32.418-20.425-52.764-20.48h-0.011z" />
<glyph unicode="&#xe90c;" glyph-name="arrow-right" horiz-adv-x="524" d="M78.769-64c-20.357 0.055-38.89 7.824-52.838 20.536l0.063-0.056c-15.875 14.463-25.799 35.222-25.799 58.299 0 20.329 7.701 38.86 20.346 52.833l-0.060-0.068 345.797 380.455-345.797 380.455c-10.809 13.372-17.352 30.583-17.352 49.321 0 43.503 35.266 78.769 78.769 78.769 21.486 0 40.963-8.603 55.174-22.551l-0.012 0.012 345.797-379.668c25.393-27.868 40.945-65.090 40.945-105.945s-15.551-78.077-41.057-106.070l0.113 0.125-345.797-380.455c-14.432-15.946-35.188-25.937-58.279-25.994h-0.010z" />
<glyph unicode="&#xe90d;" glyph-name="pdf" horiz-adv-x="943" d="M919.444 752.505l-183.781 183.781c-14.676 14.539-34.834 23.568-57.1 23.714h-462.984c-44.648 0-80.842-36.194-80.842-80.842v0-431.158h-80.842c-29.765 0-53.895-24.129-53.895-53.895v0-269.474c0-29.765 24.129-53.895 53.895-53.895v0h80.842v-53.895c0-44.648 36.194-80.842 80.842-80.842v0h646.737c44.648 0 80.842 36.194 80.842 80.842v0 678.535c-0.145 22.294-9.174 42.452-23.72 57.135l0.006-0.006zM727.579 867.84l123.419-123.419h-96.472c-14.883 0-26.947 12.065-26.947 26.947v0zM53.895 394.105v0h538.947v-269.474h-538.947v269.474zM889.263 16.842c0-14.883-12.065-26.947-26.947-26.947v0h-646.737c-14.883 0-26.947 12.065-26.947 26.947v0 53.895h404.211c29.765 0 53.895 24.129 53.895 53.895v0 269.474c0 29.765-24.129 53.895-53.895 53.895v0h-404.211v431.158c0 14.883 12.065 26.947 26.947 26.947v0h458.105v-134.737c0-44.648 36.194-80.842 80.842-80.842v0h134.737zM431.158 171.52h24.253c0.162-0.017 0.349-0.027 0.539-0.027 2.977 0 5.389 2.413 5.389 5.389 0 0.010 0 0.019 0 0.028v-0.001 55.512c0 3.274 2.654 5.928 5.928 5.928v0h57.128c3.034 0.285 5.39 2.819 5.39 5.904 0 0.009 0 0.017 0 0.026v-0.001 20.48c0 0.007 0 0.016 0 0.025 0 3.084-2.356 5.619-5.366 5.902l-0.024 0.002h-55.512c-0.007 0-0.016 0-0.025 0-3.084 0-5.619 2.356-5.902 5.366l-0.002 0.024v29.103c0 0.008 0 0.018 0 0.027 0 2.977 2.413 5.389 5.389 5.389 0.19 0 0.377-0.010 0.562-0.029l-0.023 0.002h64.135c3.274 0 5.928 2.654 5.928 5.928v0 17.785c0 3.274-2.654 5.928-5.928 5.928v0h-101.861c-0.008 0-0.018 0-0.027 0-2.977 0-5.389-2.413-5.389-5.389 0-0.19 0.010-0.377 0.029-0.562l-0.002 0.023v-155.756c-0.36-0.661-0.572-1.448-0.572-2.285 0-2.679 2.172-4.851 4.851-4.851 0.394 0 0.777 0.047 1.144 0.136l-0.033-0.007zM264.084 171.52h53.895c2.348-0.209 5.078-0.328 7.837-0.328 13.127 0 25.624 2.697 36.967 7.567l-0.61-0.233c12.222 6.795 21.981 16.727 28.379 28.723l0.185 0.38c6.143 12.647 9.735 27.511 9.735 43.213 0 0.913-0.012 1.824-0.036 2.731l0.003-0.134c0.023 0.781 0.036 1.7 0.036 2.621 0 15.328-3.595 29.817-9.988 42.669l0.251-0.558c-6.263 12.599-16.113 22.622-28.207 28.933l-0.357 0.17c-12.408 7.84-27.442 12.614-43.569 12.933l-0.086 0.001h-53.895c-3.274 0-5.928-2.654-5.928-5.928v0-155.756c-0.159-0.485-0.25-1.043-0.25-1.623 0-2.977 2.413-5.389 5.389-5.389 0.088 0 0.175 0.002 0.262 0.006h-0.012zM293.726 303.562c0 3.274 2.654 5.928 5.928 5.928v0h16.707c0.678 0.028 1.473 0.044 2.272 0.044 8.953 0 17.439-2.003 25.033-5.585l-0.358 0.152c7.198-4.022 12.806-10.152 16.075-17.547l0.094-0.238c3.456-7.942 5.467-17.193 5.467-26.914 0-1.149-0.028-2.291-0.084-3.427l0.006 0.16c0.049-1.008 0.077-2.189 0.077-3.377 0-10.052-2.009-19.636-5.647-28.37l0.18 0.488c-3.55-7.355-9.113-13.265-15.975-17.146l-0.193-0.101c-7.517-3.747-16.374-5.941-25.743-5.941-0.424 0-0.846 0.004-1.267 0.013l0.063-0.001h-16.707c-3.274 0-5.928 2.654-5.928 5.928v0zM113.718 171.52h23.714c0.162-0.017 0.349-0.027 0.539-0.027 2.977 0 5.389 2.413 5.389 5.389 0 0.010 0 0.019 0 0.028v-0.001 49.044h30.181c1.148-0.070 2.491-0.11 3.843-0.11 10.554 0 20.54 2.427 29.433 6.753l-0.4-0.176c9.214 4.043 16.526 11.007 20.909 19.7l0.11 0.241c4.575 8.601 7.261 18.808 7.261 29.642s-2.686 21.041-7.429 29.99l0.168-0.348c-4.96 8.584-12.127 15.405-20.736 19.81l-0.283 0.132c-8.96 4.764-19.592 7.561-30.878 7.561-0.513 0-1.025-0.006-1.535-0.017l0.076 0.001h-60.362c-3.274 0-5.928-2.654-5.928-5.928v0-154.678c-0.17-0.501-0.268-1.078-0.268-1.678 0-2.977 2.413-5.389 5.389-5.389 0.285 0 0.564 0.022 0.837 0.065l-0.030-0.004zM149.288 311.107h18.324c0.483 0.025 1.048 0.039 1.617 0.039 5.711 0 11.092-1.41 15.815-3.9l-0.185 0.089c4.246-2.098 7.603-5.455 9.646-9.578l0.055-0.123c2.377-3.935 3.784-8.688 3.784-13.77 0-0.275-0.004-0.549-0.012-0.821l0.001 0.040c0.009-0.262 0.014-0.57 0.014-0.879 0-5.23-1.405-10.131-3.859-14.348l0.073 0.136c-2.274-4.121-5.58-7.427-9.576-9.638l-0.125-0.063c-4.885-2.383-10.629-3.777-16.698-3.777-0.193 0-0.385 0.001-0.577 0.004h-24.224v50.661c0 3.274 2.654 5.928 5.928 5.928v0z" />
<glyph unicode="&#xe90e;" glyph-name="datasheet" horiz-adv-x="796" d="M779.947 748.942l-194.56 194.56c-10.223 10.142-24.282 16.43-39.809 16.498h-488.689c-31.419 0-56.889-25.47-56.889-56.889v0-910.222c0-31.419 25.47-56.889 56.889-56.889v0h682.667c31.419 0 56.889 25.47 56.889 56.889v0 716.231c-0.068 15.541-6.356 29.6-16.502 39.826l0.004-0.004zM687.787 760.889h-62.009c-15.709 0-28.444 12.735-28.444 28.444v0 62.009zM56.889-7.111v910.222h483.556v-113.778c0-47.128 38.205-85.333 85.333-85.333v0h113.778v-711.111zM341.333 618.667h-170.667v-398.222h455.111v398.222h-284.444zM227.556 561.778h113.778v-56.889h-113.778zM227.556 448h170.667v-56.889h-170.667zM341.333 277.333h-113.778v56.889h113.778zM568.889 277.333h-170.667v56.889h170.667zM568.889 391.111h-113.778v56.889h113.778zM568.889 561.778v-56.889h-170.667v56.889z" />
<glyph unicode="&#xe90f;" glyph-name="zip" horiz-adv-x="943" d="M919.444 752.505l-183.781 183.781c-14.676 14.539-34.834 23.568-57.1 23.714h-462.984c-44.648 0-80.842-36.194-80.842-80.842v0-431.158h-80.842c-29.765 0-53.895-24.129-53.895-53.895v0-269.474c0-29.765 24.129-53.895 53.895-53.895v0h80.842v-53.895c0-44.648 36.194-80.842 80.842-80.842v0h646.737c44.648 0 80.842 36.194 80.842 80.842v0 678.535c-0.145 22.294-9.174 42.452-23.72 57.135l0.006-0.006zM727.579 867.84l123.419-123.419h-96.472c-14.883 0-26.947 12.065-26.947 26.947v0zM53.895 394.105v0h538.947v-269.474h-538.947v269.474zM889.263 16.842c0-14.883-12.065-26.947-26.947-26.947v0h-646.737c-14.883 0-26.947 12.065-26.947 26.947v0 53.895h404.211c29.765 0 53.895 24.129 53.895 53.895v0 269.474c0 29.765-24.129 53.895-53.895 53.895v0h-404.211v431.158c0 14.883 12.065 26.947 26.947 26.947v0h458.105v-134.737c0-44.648 36.194-80.842 80.842-80.842v0h134.737zM372.952 183.377h22.636c2.867 0.258 5.131 2.523 5.388 5.367l0.002 0.023v43.655h30.181c0.2-0.002 0.436-0.003 0.672-0.003 10.944 0 21.283 2.589 30.439 7.187l-0.391-0.178c8.214 4.143 14.834 10.417 19.284 18.104l0.118 0.22c2.654 6.39 4.195 13.812 4.195 21.594 0 2.457-0.154 4.878-0.452 7.254l0.029-0.283c0.010 0.396 0.015 0.862 0.015 1.33 0 9.751-2.398 18.941-6.635 27.014l0.153-0.319c-4.505 7.789-10.917 14.028-18.613 18.2l-0.25 0.124c-8.247 4.602-18.064 7.378-28.514 7.545l-0.050 0.001h-58.206c-2.977 0-5.389-2.413-5.389-5.389v0-146.055c0.258-2.867 2.523-5.131 5.367-5.388l0.023-0.002zM406.366 313.263h16.707c0.355 0.012 0.771 0.020 1.19 0.020 5.431 0 10.581-1.199 15.202-3.346l-0.223 0.093c3.94-2.081 7.081-5.222 9.106-9.045l0.057-0.117c2.044-3.836 3.245-8.389 3.245-13.222 0-0.278-0.004-0.555-0.012-0.831l0.001 0.041c0.003-0.158 0.005-0.343 0.005-0.529 0-4.739-1.199-9.197-3.311-13.089l0.072 0.145c-2.081-3.94-5.222-7.081-9.045-9.106l-0.117-0.057c-4.209-2.055-9.159-3.257-14.389-3.257-0.436 0-0.871 0.008-1.303 0.025l0.062-0.002h-22.636v46.888c0 2.977 2.413 5.389 5.389 5.389v0zM312.589 340.211h22.636c2.977 0 5.389-2.413 5.389-5.389v-146.055c0-2.977-2.413-5.389-5.389-5.389h-22.636c-2.977 0-5.389 2.413-5.389 5.389v146.055c0 2.977 2.413 5.389 5.389 5.389zM167.074 312.724h62.518c2.977 0 5.389-2.413 5.389-5.389 0-1.219-0.405-2.344-1.088-3.247l-72.209-99.692c-0.143-0.484-0.225-1.041-0.225-1.617s0.082-1.132 0.235-1.659l-0.010 0.042v-12.396c0.258-2.867 2.523-5.131 5.367-5.388l0.023-0.002h107.789c2.977 0 5.389 2.413 5.389 5.389v0 16.707c0 2.977-2.413 5.389-5.389 5.389h-59.284c-2.977 0-5.389 2.413-5.389 5.389 0 1.219 0.405 2.344 1.088 3.247l-0.010-0.014 71.141 99.705c0.111 0.486 0.175 1.044 0.175 1.617s-0.064 1.131-0.185 1.667l0.010-0.050v12.396c0 2.977-2.413 5.389-5.389 5.389v0h-107.789c-0.172 0.022-0.371 0.034-0.573 0.034-2.679 0-4.851-2.172-4.851-4.851 0-0.202 0.012-0.401 0.036-0.596l-0.002 0.023v-16.707c-0.012-0.132-0.018-0.286-0.018-0.442 0-2.204 1.323-4.098 3.217-4.934l0.035-0.014z" />
<glyph unicode="&#xe910;" glyph-name="confirmed" horiz-adv-x="922" d="M527.36-2.56c-35.84-35.84-97.28-35.84-133.12 0l-184.32 158.72c-102.4 87.040-163.84 215.040-174.080 348.16l-25.6 317.44c-5.12 61.44 40.96 112.64 102.4 112.64h696.32c61.44 0 107.52-51.2 102.4-112.64l-25.6-317.44c-10.24-133.12-71.68-261.12-174.080-348.16zM138.24 514.56c10.24-107.52 56.32-204.8 138.24-276.48l184.32-163.84 184.32 163.84c81.92 71.68 133.12 168.96 143.36 276.48l25.6 322.56h-701.44zM496.64 417.28c-20.48-20.48-56.32-20.48-76.8 0l-97.28 92.16c-20.48 20.48-20.48 51.2 0 71.68s51.2 20.48 71.68 0l61.44-56.32 122.88 117.76c20.48 20.48 56.32 20.48 71.68 0 20.48-20.48 20.48-56.32 0-76.8z" />
<glyph unicode="&#xe911;" glyph-name="clear-all" d="M773.389 709.389c-4.731 5.032-11.431 8.166-18.863 8.166s-14.132-3.134-18.851-8.153l-0.013-0.013-223.663-223.124-223.663 223.124c-4.828 4.828-11.497 7.813-18.863 7.813-14.733 0-26.677-11.943-26.677-26.677 0-7.367 2.986-14.036 7.813-18.863v0l223.124-223.663-223.124-223.663c-5.032-4.731-8.166-11.431-8.166-18.863s3.134-14.132 8.153-18.851l0.013-0.013c4.731-5.032 11.431-8.166 18.863-8.166s14.132 3.134 18.851 8.153l0.013 0.013 223.663 223.124 223.663-223.124c4.731-5.032 11.431-8.166 18.863-8.166s14.132 3.134 18.851 8.153l0.013 0.013c5.032 4.731 8.166 11.431 8.166 18.863s-3.134 14.132-8.153 18.851l-0.013 0.013-223.124 223.663 223.124 223.663c5.032 4.731 8.166 11.431 8.166 18.863s-3.134 14.132-8.153 18.851l-0.013 0.013zM900.042 960h-776.084c-68.46 0-123.958-55.498-123.958-123.958v0-776.084c0-68.46 55.498-123.958 123.958-123.958v0h776.084c68.46 0 123.958 55.498 123.958 123.958v0 776.084c0 68.46-55.498 123.958-123.958 123.958v0zM970.105 59.958c0-38.695-31.368-70.063-70.063-70.063v0h-776.084c-38.695 0-70.063 31.368-70.063 70.063v0 776.084c0 38.695 31.368 70.063 70.063 70.063v0h776.084c38.695 0 70.063-31.368 70.063-70.063v0z" />
<glyph unicode="&#xe912;" glyph-name="go-back" horiz-adv-x="2296" d="M2295.652 517.565h-2057.739l324.174 324.174c12.38 12.758 20.012 30.183 20.012 49.391s-7.632 36.633-20.029 49.409l0.017-0.018c-12.758 12.38-30.183 20.012-49.391 20.012s-36.633-7.632-49.409-20.029l0.018 0.017-442.435-443.826c-12.99-12.213-21.081-29.51-21.081-48.696s8.091-36.482 21.046-48.663l0.035-0.032 442.435-443.826c12.64-12.64 30.103-20.459 49.391-20.459 38.577 0 69.85 31.273 69.85 69.85 0 19.289-7.818 36.751-20.459 49.391l-324.174 324.174h2057.739z" />
<glyph unicode="&#xe913;" glyph-name="minus" d="M896 405.333h-768c-23.564 0-42.667 19.103-42.667 42.667s19.103 42.667 42.667 42.667v0h768c23.564 0 42.667-19.103 42.667-42.667s-19.103-42.667-42.667-42.667v0z" />
<glyph unicode="&#xe914;" glyph-name="plus" d="M896 405.333c23.564 0 42.667 19.103 42.667 42.667s-19.103 42.667-42.667 42.667v0h-341.333v341.333c0 23.564-19.103 42.667-42.667 42.667s-42.667-19.103-42.667-42.667v0-341.333h-341.333c-23.564 0-42.667-19.103-42.667-42.667s19.103-42.667 42.667-42.667v0h341.333v-341.333c0-23.564 19.103-42.667 42.667-42.667s42.667 19.103 42.667 42.667v0 341.333z" />
<glyph unicode="&#xe915;" glyph-name="move" d="M448 128c0-53.019-42.981-96-96-96s-96 42.981-96 96c0 53.019 42.981 96 96 96v0c53.019 0 96-42.981 96-96v0zM352 352c53.019 0 96 42.981 96 96s-42.981 96-96 96c-53.019 0-96-42.981-96-96v0c0-53.019 42.981-96 96-96v0zM352 672c53.019 0 96 42.981 96 96s-42.981 96-96 96c-53.019 0-96-42.981-96-96v0c0-53.019 42.981-96 96-96v0zM672 352c53.019 0 96 42.981 96 96s-42.981 96-96 96c-53.019 0-96-42.981-96-96v0c0-53.019 42.981-96 96-96v0zM768 768c0-53.019-42.981-96-96-96s-96 42.981-96 96c0 53.019 42.981 96 96 96v0c53.019 0 96-42.981 96-96v0zM672 32c53.019 0 96 42.981 96 96s-42.981 96-96 96c-53.019 0-96-42.981-96-96v0c0-53.019 42.981-96 96-96v0z" />
<glyph unicode="&#xe916;" glyph-name="back" d="M578.095 448l431.942 431.942c8.504 8.436 13.768 20.127 13.768 33.047s-5.264 24.611-13.765 33.044l-0.003 0.003c-8.389 8.227-19.892 13.305-32.582 13.305s-24.193-5.078-32.589-13.313l-432.866-432.866-432.873 432.873c-8.389 8.227-19.892 13.305-32.582 13.305s-24.193-5.078-32.589-13.313l0.007 0.007c-8.504-8.436-13.768-20.127-13.768-33.047s5.264-24.611 13.765-33.044l431.945-431.945-431.942-432.873c-8.504-8.436-13.768-20.127-13.768-33.047s5.264-24.611 13.765-33.044l0.003-0.003c7.797-8.064 18.713-13.070 30.798-13.070 0.627 0 1.251 0.013 1.872 0.040l-0.089-0.003c0.532-0.024 1.156-0.037 1.784-0.037 12.085 0 23.001 5.006 30.787 13.058l0.011 0.012 432.873 432.873 432.873-432.873c8.482-8.017 19.956-12.945 32.582-12.945s24.1 4.928 32.604 12.966l-0.023-0.021c8.504 8.436 13.768 20.127 13.768 33.047s-5.264 24.611-13.765 33.044l-0.003 0.003z" />
<glyph unicode="&#xe917;" glyph-name="rotate-left" horiz-adv-x="1145" d="M1097.484 31.433c-0.524-0.001-1.144-0.002-1.765-0.002-430.689 0-790.263 304.484-875.202 709.934l-1.020 5.818-11.452 57.26 47.717-47.717c7.885-5.98 17.861-9.58 28.678-9.58 0.654 0 1.305 0.013 1.953 0.039l-0.093-0.003c13.426 0.034 25.57 5.499 34.355 14.314l0.001 0.001c8.434 8.6 13.64 20.393 13.64 33.402s-5.206 24.802-13.648 33.409l0.007-0.008-111.657 109.748-18.132 21.95h-45.808l-130.744-131.698c-8.548-8.548-13.835-20.358-13.835-33.402 0-26.088 21.149-47.237 47.237-47.237 13.044 0 24.853 5.287 33.402 13.835l32.447 32.447 12.406-61.077c93.65-457.55 492.934-796.869 971.47-796.869 0.015 0 0.029 0 0.044 0h-0.002c26.353 0 47.717 21.363 47.717 47.717s-21.363 47.717-47.717 47.717v0z" />
<glyph unicode="&#xe918;" glyph-name="question" d="M512-64c-282.77 0-512 229.23-512 512s229.23 512 512 512c282.77 0 512-229.23 512-512v0c0-282.77-229.23-512-512-512v0zM512 813.714c-201.978 0-365.714-163.736-365.714-365.714s163.736-365.714 365.714-365.714c201.978 0 365.714 163.736 365.714 365.714v0c0 201.978-163.736 365.714-365.714 365.714v0zM465.189 374.857c-0.005 0.41-0.008 0.893-0.008 1.378 0 45.681 25.85 85.324 63.72 105.1l0.654 0.311c8.338 4.988 15.041 11.925 19.609 20.205l0.139 0.275c4.617 8.177 7.337 17.955 7.337 28.369 0 0.57-0.008 1.137-0.024 1.703l0.002-0.083c0.006 0.299 0.010 0.651 0.010 1.003 0 9.882-2.722 19.128-7.457 27.030l0.133-0.239c-4.762 8.512-11.761 15.276-20.209 19.622l-0.271 0.127c-7.533 4.606-16.65 7.333-26.403 7.333-0.489 0-0.977-0.007-1.462-0.020l0.072 0.002c-0.282 0.005-0.615 0.008-0.949 0.008-10.145 0-19.656-2.718-27.843-7.465l0.267 0.143c-8.33-4.71-15.039-11.419-19.616-19.494l-0.133-0.254c-4.602-7.663-7.324-16.909-7.324-26.791 0-0.353 0.003-0.705 0.010-1.056l-0.001 0.053h-79.726c-0.010 0.579-0.015 1.263-0.015 1.948 0 24.158 6.809 46.725 18.613 65.887l-0.312-0.544c12.384 20.145 28.86 36.621 48.373 48.643l0.632 0.362c19.495 11.529 42.964 18.341 68.023 18.341s48.527-6.812 68.654-18.685l-0.631 0.344c20.145-12.384 36.621-28.86 48.643-48.373l0.362-0.632c11.492-18.619 18.301-41.186 18.301-65.343 0-0.685-0.005-1.369-0.016-2.051l0.001 0.103c0.012-0.698 0.019-1.521 0.019-2.346 0-26.075-7.070-50.499-19.397-71.459l0.36 0.662c-11.771-21.047-29.005-37.811-49.803-48.689l-0.665-0.317c-6.882-3.402-12.397-8.682-15.996-15.173l-0.095-0.187c-3.692-5.759-5.886-12.785-5.886-20.325 0-0.569 0.013-1.135 0.037-1.698l-0.003 0.080zM512 249.051c-0.144-0.002-0.315-0.003-0.486-0.003-11.332 0-21.55 4.773-28.753 12.417l-0.019 0.020c-6.803 6.978-10.999 16.525-10.999 27.052 0 0.518 0.010 1.034 0.030 1.547l-0.002-0.074c-0.003 0.185-0.005 0.402-0.005 0.621 0 10.794 4.175 20.613 10.998 27.929l-0.022-0.024c7.397 6.81 17.311 10.985 28.201 10.985 0.371 0 0.742-0.005 1.111-0.015l-0.055 0.001c0.141 0.002 0.306 0.003 0.473 0.003 10.608 0 20.24-4.182 27.335-10.987l-0.014 0.013c7.228-7.048 11.71-16.882 11.71-27.763 0-0.268-0.003-0.536-0.008-0.803l0.001 0.040c0.024-0.5 0.038-1.086 0.038-1.676 0-10.601-4.511-20.149-11.718-26.829l-0.024-0.022c-6.909-7.572-16.786-12.334-27.776-12.434h-0.018z" />
<glyph unicode="&#xe919;" glyph-name="preloader" d="M512 874.667c23.564 0 42.667-19.103 42.667-42.667v0-128c0-23.564-19.103-42.667-42.667-42.667s-42.667 19.103-42.667 42.667v0 128c0 23.564 19.103 42.667 42.667 42.667v0zM512 234.667c23.564 0 42.667-19.103 42.667-42.667v0-128c0-23.564-19.103-42.667-42.667-42.667s-42.667 19.103-42.667 42.667v0 128c0 23.564 19.103 42.667 42.667 42.667v0zM938.667 448c0-23.564-19.103-42.667-42.667-42.667v0h-128c-23.564 0-42.667 19.103-42.667 42.667s19.103 42.667 42.667 42.667v0h128c23.564 0 42.667-19.103 42.667-42.667v0zM298.667 448c0-23.564-19.103-42.667-42.667-42.667v0h-128c-23.564 0-42.667 19.103-42.667 42.667s19.103 42.667 42.667 42.667v0h128c23.564 0 42.667-19.103 42.667-42.667v0zM813.653 146.347c-7.712-7.668-18.343-12.407-30.080-12.407s-22.368 4.74-30.082 12.409l0.002-0.002-90.453 88.32c-7.971 7.971-12.901 18.983-12.901 31.147 0 24.327 19.721 44.048 44.048 44.048 12.164 0 23.176-4.93 31.147-12.901l90.453-90.453c7.668-7.712 12.407-18.343 12.407-30.080s-4.74-22.368-12.409-30.082l0.002 0.002zM360.96 599.040c-7.712-7.668-18.343-12.407-30.080-12.407s-22.368 4.74-30.082 12.409l-90.451 90.451c-6.377 7.412-10.259 17.129-10.259 27.753 0 23.564 19.103 42.667 42.667 42.667 10.624 0 20.341-3.883 27.809-10.307l-0.056 0.047 90.453-90.453c7.668-7.712 12.407-18.343 12.407-30.080s-4.74-22.368-12.409-30.082l0.002 0.002zM210.347 146.347c-7.668 7.712-12.407 18.343-12.407 30.080s4.74 22.368 12.409 30.082l90.451 90.451c7.712 7.668 18.343 12.407 30.080 12.407s22.368-4.74 30.082-12.409l-0.002 0.002c7.795-7.733 12.621-18.45 12.621-30.293s-4.826-22.56-12.618-30.291l-90.030-90.030c-7.733-7.795-18.45-12.621-30.293-12.621s-22.56 4.826-30.291 12.618l-0.003 0.003zM663.040 599.040c-7.668 7.712-12.407 18.343-12.407 30.080s4.74 22.368 12.409 30.082l90.451 90.451c7.872 9.153 19.467 14.914 32.407 14.914 23.564 0 42.667-19.103 42.667-42.667 0-12.94-5.761-24.535-14.858-32.36l-0.056-0.047-88.32-90.453c-7.806-8.322-18.871-13.506-31.147-13.506s-23.341 5.184-31.125 13.483l-0.021 0.023z" />
<glyph unicode="&#xe91a;" glyph-name="map" horiz-adv-x="677" d="M338.432-64c-16.338 0.428-30.609 8.896-39.050 21.579l-0.111 0.178c-48.347 79.29-121.352 198.708-183.237 319.577-25.662 47.966-53.132 107.838-77.38 169.333l-4.328 12.454c-18.377 42.551-30.65 91.891-34.247 143.62l-0.079 1.422c-0.071 2.623-0.112 5.711-0.112 8.809 0 188.697 150.559 342.228 338.1 347.020l0.444 0.009c187.971-4.819 338.511-158.343 338.511-347.028 0-2.588-0.028-5.169-0.085-7.743l0.007 0.384c-3.735-53.161-16.002-102.493-35.458-148.020l1.131 2.978c-28.089-73.365-55.568-133.248-86.242-191.177l4.535 9.391c-61.885-121.352-133.439-241.737-183.237-319.577-8.256-13.432-22.579-22.441-39.055-23.203l-0.107-0.004zM338.432 911.653c-161.269-4.796-290.176-136.676-290.176-298.663 0-2.594 0.033-5.18 0.099-7.757l-0.008 0.381c3.658-47.386 14.689-91.249 31.973-131.808l-1.030 2.721c27.712-71.735 54.53-130.012 84.352-186.457l-4.579 9.505c60.918-119.902 131.022-237.87 179.369-315.709 48.347 77.839 117.001 195.807 177.919 315.226 25.737 47.206 53.023 105.616 77.067 165.674l4.156 11.761c16.254 37.84 27.285 81.703 30.853 127.66l0.089 1.428c0.058 2.197 0.091 4.783 0.091 7.376 0 161.988-128.907 293.867-289.735 298.653l-0.441 0.010zM338.432 476.525c-80.105 0-145.042 64.938-145.042 145.042s64.938 145.042 145.042 145.042c80.105 0 145.042-64.938 145.042-145.042v0c0-80.105-64.938-145.042-145.042-145.042v0zM338.432 718.263c-53.403 0-96.695-43.292-96.695-96.695s43.292-96.695 96.695-96.695c53.403 0 96.695 43.292 96.695 96.695v0c0 53.403-43.292 96.695-96.695 96.695v0z" />
<glyph unicode="&#xe91b;" glyph-name="rotate-right" horiz-adv-x="1145" d="M1130.885 828.302l-113.566 109.748-20.995 17.178-41.991 1.909-132.652-128.835c-8.434-8.6-13.64-20.393-13.64-33.402s5.206-24.802 13.648-33.409l-0.007 0.008c8.649-8.718 20.633-14.115 33.879-14.115s25.23 5.397 33.876 14.111l47.72 47.72-11.452-62.032c-85.959-411.268-445.533-715.752-876.222-715.752-0.621 0-1.241 0.001-1.861 0.002h0.097c-26.353 0-47.717-21.363-47.717-47.717s21.363-47.717 47.717-47.717v0c0.013 0 0.027 0 0.042 0 478.536 0 877.82 339.319 970.375 790.478l1.095 6.39 12.406 61.077 32.447-32.447c8.377-8.91 20.241-14.46 33.402-14.46s25.024 5.55 33.379 14.436l0.022 0.024c8.91 8.377 14.46 20.241 14.46 33.402s-5.55 25.024-14.436 33.379l-0.024 0.022z" />
<glyph unicode="&#xe91c;" glyph-name="download-all" horiz-adv-x="819" d="M804.352 770.048l-175.104 175.104c-9.201 9.128-21.853 14.787-35.828 14.848h-439.82c-28.277 0-51.2-22.923-51.2-51.2v0-51.2h-51.2c-28.277 0-51.2-22.923-51.2-51.2v0-819.2c0-28.277 22.923-51.2 51.2-51.2v0h614.4c28.277 0 51.2 22.923 51.2 51.2v0 51.2h51.2c28.277 0 51.2 22.923 51.2 51.2v0 644.608c-0.061 13.987-5.72 26.64-14.851 35.843l0.003-0.003zM721.408 780.8h-55.808c-14.138 0-25.6 11.462-25.6 25.6v0 55.808zM665.6-12.8h-614.4v819.2h51.2v-716.8c0-28.277 22.923-51.2 51.2-51.2v0h512zM768 89.6h-614.4v256h614.4zM153.6 396.8v512h435.2v-102.4c0-42.415 34.385-76.8 76.8-76.8v0h102.4v-332.8zM519.68 619.52l-33.28-32.768v194.048c0 14.138-11.462 25.6-25.6 25.6s-25.6-11.462-25.6-25.6v0-194.048l-33.28 32.768c-4.586 4.586-10.922 7.423-17.92 7.423-13.996 0-25.343-11.346-25.343-25.343 0-6.998 2.837-13.334 7.423-17.92v0l69.12-69.632c6.51-6.641 15.574-10.757 25.6-10.757s19.090 4.116 25.594 10.751l0.006 0.006 69.12 69.632c4.586 4.586 7.423 10.922 7.423 17.92 0 13.996-11.346 25.343-25.343 25.343-6.998 0-13.334-2.837-17.92-7.423v0zM551.424 140.8h79.872c5.655 0 10.24 4.585 10.24 10.24v0 12.288c0 5.655-4.585 10.24-10.24 10.24v0h-39.424c-0.157-0.009-0.341-0.014-0.526-0.014-5.373 0-9.728 4.355-9.728 9.728 0 0.185 0.005 0.369 0.015 0.552l-0.001-0.025v95.744c0 5.655-4.585 10.24-10.24 10.24v0h-19.968c-5.655 0-10.24-4.585-10.24-10.24v0-128.512c0-5.655 4.585-10.24 10.24-10.24v0zM434.176 140.8h80.384c5.655 0 10.24 4.585 10.24 10.24v0 12.288c0 5.655-4.585 10.24-10.24 10.24v0h-39.936c-5.655 0-10.24 4.585-10.24 10.24v0 95.744c0 5.655-4.585 10.24-10.24 10.24v0h-19.968c-5.655 0-10.24-4.585-10.24-10.24v0-128.512c0-5.655 4.585-10.24 10.24-10.24v0zM270.336 140.8h21.504c4.646 0.108 8.587 3.013 10.213 7.092l0.027 0.076 6.144 21.504h51.2l6.144-21.504c1.653-4.155 5.594-7.060 10.227-7.168h21.517c0.208-0.016 0.45-0.025 0.694-0.025 5.373 0 9.728 4.355 9.728 9.728 0 1.3-0.255 2.54-0.718 3.674l0.023-0.065-41.984 128.512c-1.472 4.087-5.239 6.991-9.707 7.167l-0.021 0.001h-40.96c-4.489-0.177-8.256-3.081-9.704-7.093l-0.024-0.075-41.984-128.512c-0.456-1.087-0.721-2.35-0.721-3.675 0-4.905 3.63-8.961 8.349-9.631l0.052-0.006zM332.288 248.32v0l14.848-51.2h-30.72z" />
<glyph unicode="&#xe91d;" glyph-name="rotate" horiz-adv-x="2038" d="M1018.905 960c-562.096 0-1018.905-190.196-1018.905-424.544 0-183.403 281.897-339.635 679.27-399.071l-54.342-56.040c-15.513-15.39-25.116-36.716-25.116-60.285s9.603-44.896 25.11-60.28l0.006-0.006c15.303-15.009 36.288-24.272 59.436-24.272s44.133 9.263 59.45 24.285l-0.014-0.013 203.781 203.781c18.112 18.633 29.28 44.098 29.28 72.172s-11.168 53.54-29.304 72.197l0.024-0.024-208.876 202.083c-15.211 15.211-36.225 24.619-59.436 24.619-46.423 0-84.055-37.633-84.055-84.055 0-23.211 9.408-44.225 24.619-59.436v0l86.607-88.305c-126.713 17.484-241.225 48.991-349.040 93.437l9.405-3.433c-65.454 23.338-121.878 56.794-170.457 99.038l0.639-0.544c-11.153 9.276-20.275 20.568-26.89 33.366l-0.281 0.598s0 8.491 0 10.189 0 0 0 10.189c6.416 13.311 14.981 24.591 25.369 33.872l0.104 0.091c47.939 41.701 104.363 75.156 166.157 97.347l3.66 1.148c184.434 71.162 397.839 112.386 620.873 112.386 11.577 0 23.127-0.111 34.651-0.332l-1.726 0.026c10.279 0.215 22.395 0.337 34.54 0.337 223.064 0 436.498-41.235 633.094-116.499l-12.138 4.083c65.454-23.338 121.878-56.794 170.457-99.038l-0.639 0.544c10.492-9.373 19.057-20.652 25.194-33.326l0.279-0.638s0-8.491 0-10.189 0 0 0-10.189c-6.416-13.311-14.981-24.591-25.369-33.872l-0.104-0.091c-47.939-41.701-104.363-75.156-166.157-97.347l-3.66-1.148c-119.11-48.805-257.211-83.651-401.347-97.994l-6.215-0.501c-43.813-5.233-77.537-41.894-78.115-86.548l-0.001-0.059c-0.001-0.129-0.001-0.282-0.001-0.434 0-45.956 37.255-83.211 83.211-83.211 2.991 0 5.945 0.158 8.854 0.466l-0.362-0.031c436.431 49.247 757.386 213.97 757.386 410.959 0 234.348-456.809 424.544-1018.905 424.544z" />
<glyph unicode="&#xe91e;" glyph-name="rotate-360" horiz-adv-x="1225" d="M612.562 551.625c-337.93 0-612.562-114.345-612.562-255.234 0-110.261 169.476-204.187 408.375-239.92l-32.67-33.691c-9.326-9.252-15.1-22.073-15.1-36.243s5.773-26.991 15.096-36.24l0.003-0.003c9.302-8.792 21.886-14.197 35.733-14.197s26.43 5.405 35.758 14.22l-0.025-0.023 122.512 122.512 18.377 22.461-6.126 47.984-137.827 137.827c-9.145 9.145-21.778 14.801-35.733 14.801-27.909 0-50.534-22.625-50.534-50.534 0-13.955 5.656-26.588 14.801-35.733v0l52.068-53.089c-76.179 10.511-145.024 29.453-209.842 56.174l5.654-2.064c-39.351 14.031-73.273 34.144-102.478 59.541l0.384-0.327c-6.705 5.577-12.189 12.365-16.166 20.059l-0.169 0.359s0 0 0 6.126 0 0 0 6.126c3.857 8.003 9.006 14.784 15.252 20.364l0.063 0.055c28.821 25.070 62.743 45.184 99.893 58.524l2.201 0.69c110.881 42.782 239.18 67.566 373.267 67.566 6.96 0 13.904-0.067 20.832-0.2l-1.038 0.016c6.18 0.129 13.464 0.202 20.765 0.202 134.106 0 262.421-24.791 380.614-70.039l-7.297 2.455c39.351-14.031 73.273-34.144 102.478-59.541l-0.384 0.327c6.308-5.635 11.457-12.416 15.147-20.035l0.167-0.383s0 0 0-6.126 0 0 0-6.126c-3.857-8.003-9.006-14.784-15.252-20.364l-0.063-0.055c-28.821-25.070-62.743-45.184-99.893-58.524l-2.201-0.69c-71.609-29.341-154.634-50.291-241.288-58.913l-3.737-0.301c-26.34-3.146-46.615-25.186-46.963-52.032v-0.035c0-0.078-0.001-0.169-0.001-0.261 0-27.629 22.397-50.026 50.026-50.026 1.798 0 3.574 0.095 5.323 0.28l-0.218-0.019c262.381 29.607 455.338 128.638 455.338 247.067 0 140.889-274.632 255.234-612.562 255.234zM823.896 669.033c19.939-11.599 43.882-18.446 69.424-18.446s49.485 6.847 70.094 18.804l-0.67-0.359c20.282 13.077 36.098 31.52 45.64 53.335l0.302 0.775c8.018 21.039 12.661 45.369 12.661 70.783 0 4.551-0.149 9.066-0.442 13.543l0.032-0.609c0.227 3.604 0.356 7.816 0.356 12.058 0 25.36-4.623 49.64-13.073 72.044l0.465-1.406c-9.025 22.452-25.091 40.498-45.421 51.802l-0.521 0.266c-18.832 11.569-41.64 18.422-66.049 18.422-1.187 0-2.37-0.016-3.548-0.048l0.174 0.004c-0.8 0.017-1.742 0.026-2.687 0.026-24.512 0-47.518-6.446-67.415-17.736l0.678 0.354c-20.026-12.569-35.78-30.291-45.631-51.329l-0.311-0.739c-9.74-22.994-15.4-49.733-15.4-77.793 0-2.083 0.031-4.159 0.093-6.227l-0.007 0.303c-0.111-2.441-0.174-5.304-0.174-8.181 0-27.296 5.698-53.262 15.97-76.772l-0.481 1.236c9.787-22.622 25.618-41.080 45.467-53.824l0.475-0.286zM859.629 873.22c6.609 12.112 19.181 20.234 33.665 20.418h0.025c0.697 0.047 1.511 0.074 2.331 0.074 8.824 0 16.922-3.11 23.258-8.293l-0.065 0.052c7.668-7.325 13.36-16.655 16.238-27.15l0.097-0.416c3.925-13.68 6.182-29.393 6.182-45.633 0-1.545-0.020-3.085-0.061-4.619l0.005 0.227c0.152-2.45 0.239-5.314 0.239-8.199 0-21.871-4.984-42.578-13.877-61.048l0.366 0.844c-6.247-13.232-19.402-22.266-34.686-22.46h-0.025c-0.101-0.001-0.221-0.002-0.341-0.002-9.473 0-18.033 3.91-24.154 10.203l-0.008 0.008c-8.033 7.614-14.057 17.27-17.243 28.139l-0.112 0.448c-3.925 13.972-6.181 30.017-6.181 46.589 0 1.568 0.020 3.13 0.060 4.688l-0.005-0.23c-0.083 1.79-0.131 3.889-0.131 5.999 0 22.368 5.328 43.491 14.785 62.17l-0.361-0.787zM517.615 689.452c11.42-11.662 25.429-20.741 41.102-26.31l0.757-0.234c15.598-5.821 33.621-9.19 52.431-9.19 0.231 0 0.463 0.001 0.694 0.002h-0.036c1.080-0.031 2.351-0.048 3.625-0.048 21.324 0 41.499 4.915 59.455 13.675l-0.804-0.354c16.351 9.309 29.748 22.053 39.548 37.327l0.269 0.448c8.349 14.474 13.275 31.832 13.275 50.342 0 0.248-0.001 0.496-0.003 0.743v-0.038c0.014 0.638 0.021 1.39 0.021 2.143 0 19.058-4.926 36.965-13.575 52.518l0.282-0.552c-8.118 13.248-18.728 24.184-31.264 32.432l-0.385 0.238c-12.973 8.711-28.715 14.284-45.685 15.302l-0.257 0.012c-11.347-0.132-22.214-1.989-32.414-5.321l0.765 0.216c-10.398-2.989-19.33-8.287-26.558-15.327l0.014 0.013c-7.624-5.745-13.569-13.331-17.226-22.109l-0.13-0.351c-0.008 0.542-0.012 1.182-0.012 1.823 0 18.849 3.756 36.82 10.56 53.207l-0.339-0.92c6.541 13.565 20.185 22.758 35.977 22.758 1.713 0 3.401-0.108 5.057-0.318l-0.197 0.020c0.028 0 0.060 0 0.093 0 8.252 0 15.972-2.277 22.567-6.236l-0.199 0.111c11.23-6.126 22.461-18.377 35.733-18.377h10.209c24.502 0 44.921 22.461 30.628 42.879v0c-11.889 15.746-26.907 28.479-44.199 37.434l-0.723 0.34c-16.216 7.389-35.17 11.696-55.131 11.696s-38.914-4.307-55.984-12.042l0.853 0.346c-16.259-7.175-29.922-17.565-40.696-30.454l-0.142-0.174c-11.58-13.797-20.66-30.135-26.274-48.007l-0.27-0.998c-5.843-18.646-9.21-40.087-9.21-62.314 0-1.064 0.008-2.126 0.023-3.187l-0.002 0.161c-0.063-1.842-0.099-4.006-0.099-6.178 0-22.276 3.775-43.67 10.719-63.578l-0.411 1.354c5.818-17.621 15.282-32.682 27.562-44.918l0.003-0.003zM569.683 775.21c2.207 5.199 5.316 9.617 9.17 13.255l0.019 0.018c3.31 3.875 7.399 6.982 12.034 9.1l0.217 0.089c2.456 0.466 5.281 0.732 8.167 0.732s5.712-0.266 8.451-0.776l-0.284 0.044c0.24 0.005 0.522 0.009 0.805 0.009 7.675 0 14.816-2.289 20.777-6.222l-0.142 0.088c6.515-3.15 11.757-8.064 15.225-14.123l0.090-0.17c2.988-6.277 4.843-13.611 5.102-21.349l0.002-0.091c0-0.043 0-0.095 0-0.146 0-7.77-1.887-15.1-5.228-21.556l0.123 0.262c-3.811-6.34-8.974-11.503-15.116-15.204l-0.198-0.11c-4.845-1.898-10.452-3.018-16.316-3.063h-0.019c-7.475 0.146-14.481 2.017-20.68 5.228l0.262-0.123c-6.019 3.818-10.86 8.987-14.186 15.1l-0.107 0.215c-5.472 5.056-9.434 11.673-11.18 19.142l-0.050 0.255c-0.037 0.709-0.059 1.539-0.059 2.374 0 6.119 1.145 11.97 3.233 17.352l-0.112-0.327zM345.077 724.164c-2.913-0.724-6.258-1.139-9.699-1.139s-6.786 0.415-9.986 1.198l0.287-0.059c-3.070-0.585-6.6-0.919-10.209-0.919s-7.14 0.334-10.563 0.974l0.354-0.055c-5.88 2.353-10.737 6.224-14.227 11.133l-0.066 0.097c-6.126 7.147-13.272 15.314-22.461 15.314h-23.482c-22.461 0-41.858-19.398-31.649-39.817l6.126-9.188c10.937-14.747 25.42-26.278 42.212-33.438l0.667-0.253c18.235-8.76 39.609-14 62.176-14.292l0.101-0.001c0.685-0.010 1.494-0.015 2.304-0.015 22.279 0 43.595 4.125 63.225 11.653l-1.21-0.408c17.514 7.092 32.244 17.887 43.766 31.487l0.134 0.162c9.565 12.639 15.321 28.623 15.321 45.951 0 0.356-0.002 0.711-0.007 1.066l0.001-0.054c0.024 0.644 0.038 1.401 0.038 2.161 0 16.641-6.636 31.733-17.406 42.773l0.012-0.013c-13.979 12.846-32.544 20.895-52.98 21.437l-0.108 0.002s0 0 0 0c16.589 1.48 31.381 8.189 42.958 18.445l-0.078-0.068c10.124 9.357 16.442 22.704 16.442 37.528 0 1.165-0.039 2.32-0.116 3.465l0.008-0.155c0.316 2.394 0.496 5.162 0.496 7.972 0 15.646-5.586 29.987-14.873 41.137l0.084-0.104c-9.79 13.492-22.924 24.001-38.203 30.408l-0.592 0.22c-16.906 7.105-36.557 11.234-57.172 11.234-0.359 0-0.718-0.001-1.077-0.004h0.055c-0.808 0.017-1.759 0.026-2.713 0.026-20.833 0-40.61-4.522-58.403-12.637l0.881 0.36c-16.79-7.008-30.643-18.235-40.642-32.379l-0.195-0.291-6.126-10.209c-9.188-19.398 9.188-37.775 30.628-37.775h21.44c9.188 0 16.335 8.167 21.44 16.335 3.701 4.566 8.53 8.080 14.067 10.136l0.226 0.074c3.068 0.73 6.59 1.149 10.209 1.149s7.142-0.419 10.52-1.21l-0.311 0.061c2.609 0.503 5.61 0.791 8.678 0.791s6.069-0.288 8.977-0.838l-0.299 0.047c5.043-2.692 9.174-6.496 12.174-11.104l0.077-0.126c0.778-2.286 1.227-4.919 1.227-7.657s-0.449-5.371-1.278-7.83l0.051 0.173c0.943-2.266 1.49-4.897 1.49-7.657s-0.547-5.391-1.54-7.793l0.050 0.136c-3.557-5.006-8.413-8.877-14.080-11.155l-0.213-0.076c-3.068-0.73-6.59-1.149-10.209-1.149s-7.142 0.419-10.52 1.21l0.311-0.061c-15.224 0-27.565-12.341-27.565-27.565s12.341-27.565 27.565-27.565v0 0c3.376 0.549 7.266 0.863 11.23 0.863s7.855-0.314 11.649-0.918l-0.419 0.055c6.313-2.116 11.551-6.035 15.253-11.141l0.061-0.089c3.802-4.158 6.131-9.718 6.131-15.822 0-0.18-0.002-0.36-0.006-0.539v0.027c0-5.775-1.918-11.102-5.151-15.378l0.047 0.064c-1.625-8.473-7.433-15.296-15.148-18.319l-0.167-0.057z" />
<glyph unicode="&#xe91f;" glyph-name="arrow-up" horiz-adv-x="474" d="M12.734 696.322c6.789-6.843 16.196-11.079 26.593-11.079s19.804 4.236 26.59 11.076l0.002 0.002 134.086 135.584v-858.452c0-20.685 16.769-37.454 37.454-37.454s37.454 16.769 37.454 37.454v0 858.452l135.584-135.584c6.789-6.843 16.196-11.079 26.593-11.079s19.804 4.236 26.59 11.076l0.002 0.002c6.994 6.576 11.35 15.888 11.35 26.218s-4.356 19.642-11.331 26.201l-0.019 0.017-200.006 198.508c-3.196 4.071-7.199 7.356-11.786 9.648l-0.199 0.090c-4.188 1.899-9.081 3.005-14.233 3.005s-10.045-1.106-14.455-3.095l0.222 0.090c-4.786-2.382-8.79-5.667-11.929-9.664l-0.056-0.074-198.508-198.508c-6.994-6.576-11.35-15.888-11.35-26.218s4.356-19.642 11.331-26.201l0.019-0.017z" />
<glyph unicode="&#xe920;" glyph-name="arrow-down" horiz-adv-x="474" d="M462.186 198.18c-6.789 6.843-16.196 11.079-26.593 11.079s-19.804-4.236-26.59-11.076l-134.088-134.088v858.452c0 20.685-16.769 37.454-37.454 37.454s-37.454-16.769-37.454-37.454v0-858.452l-135.584 134.086c-6.806 6.806-16.208 11.015-26.593 11.015-20.77 0-37.608-16.837-37.608-37.608 0-10.385 4.209-19.787 11.015-26.593v0l200.006-199.257c3.12-3.721 7.171-6.564 11.796-8.182l0.189-0.058c4.188-1.899 9.081-3.005 14.233-3.005s10.045 1.106 14.455 3.095l-0.222-0.090c4.815 1.676 8.865 4.519 11.951 8.198l0.034 0.042 198.508 200.755c6.404 6.708 10.345 15.816 10.345 25.843s-3.941 19.135-10.358 25.858l0.014-0.015z" />
<glyph unicode="&#xe922;" glyph-name="home" horiz-adv-x="895" d="M0 17.334v496.953c-0.001 0.14-0.001 0.305-0.001 0.47 0 22.343 9.009 42.582 23.594 57.282l-0.005-0.005 366.005 364.378c14.742 14.86 35.17 24.059 57.747 24.059s43.006-9.199 57.742-24.053l0.005-0.005 366.005-364.378c14.579-14.695 23.588-34.934 23.588-57.277 0-0.165 0-0.331-0.001-0.496v0.025-496.953c0-44.92-36.415-81.334-81.334-81.334v0h-172.429c-44.92 0-81.334 36.415-81.334 81.334v0 171.616c0 44.92-36.415 81.334-81.334 81.334v0h-61.001c-44.92 0-81.334-36.415-81.334-81.334v0-171.616c0-44.92-36.415-81.334-81.334-81.334v0h-173.242c-44.92 0-81.334 36.415-81.334 81.334v0z" />
<glyph unicode="&#xe923;" glyph-name="check" horiz-adv-x="1552" d="M623.192-64c-1.267-0.041-2.757-0.065-4.253-0.065-40.090 0-76.234 16.895-101.701 43.953l-0.067 0.071-478.384 462.869c-23.622 23.434-38.245 55.908-38.245 91.798s14.623 68.364 38.236 91.79l0.008 0.008c23.712 23.009 56.098 37.194 91.798 37.194s68.086-14.185 91.831-37.226l-0.033 0.032 400.808-390.465 708.525 687.838c23.359 22.728 55.295 36.744 90.505 36.744 71.706 0 129.835-58.129 129.835-129.835 0-36.496-15.058-69.475-39.3-93.062l-0.030-0.029-775.758-757.657c-29.048-27.243-68.235-43.978-111.332-43.978-0.86 0-1.719 0.007-2.576 0.020l0.13-0.002z" />
<glyph unicode="&#xe924;" glyph-name="list" horiz-adv-x="951" d="M98.011 960c-54.13 0-98.011-43.881-98.011-98.011v0-97.28c0-0.001 0-0.002 0-0.003 0-53.726 43.554-97.28 97.28-97.28 0.257 0 0.514 0.001 0.771 0.003h97.241c0.218-0.002 0.476-0.003 0.734-0.003 53.322 0 96.549 43.226 96.549 96.549 0 0.258-0.001 0.516-0.003 0.774v-0.039 97.28c0.002 0.217 0.003 0.474 0.003 0.731 0 53.726-43.554 97.28-97.28 97.28-0.001 0-0.002 0-0.003 0v0zM98.011 594.286c-54.13 0-98.011-43.881-98.011-98.011v0-97.28c0-0.001 0-0.002 0-0.003 0-53.726 43.554-97.28 97.28-97.28 0.257 0 0.514 0.001 0.771 0.003h97.241c0.218-0.002 0.476-0.003 0.734-0.003 53.322 0 96.549 43.226 96.549 96.549 0 0.258-0.001 0.516-0.003 0.774v-0.039 97.28c0.002 0.217 0.003 0.474 0.003 0.731 0 53.726-43.554 97.28-97.28 97.28-0.001 0-0.002 0-0.003 0v0zM0 130.56c0 54.13 43.881 98.011 98.011 98.011h97.28c0.001 0 0.002 0 0.003 0 53.726 0 97.28-43.554 97.28-97.28 0-0.257-0.001-0.514-0.003-0.771v0.039-97.28c0.002-0.218 0.003-0.476 0.003-0.734 0-53.322-43.226-96.549-96.549-96.549-0.258 0-0.516 0.001-0.774 0.003h-97.241c-0.217-0.002-0.474-0.003-0.731-0.003-53.726 0-97.28 43.554-97.28 97.28 0 0.001 0 0.002 0 0.003v0zM438.857 837.851c-11.786-2.1-20.619-12.27-20.619-24.503s8.833-22.403 20.469-24.481l0.151-0.022h487.863c11.786 2.1 20.619 12.27 20.619 24.503s-8.833 22.403-20.469 24.481l-0.151 0.022zM414.72 448c0 13.331 10.807 24.137 24.137 24.137v0h487.863c11.786-2.1 20.619-12.27 20.619-24.503s-8.833-22.403-20.469-24.481l-0.151-0.022h-487.863c-13.416 0.407-24.137 11.38-24.137 24.858 0 0.004 0 0.008 0 0.011v-0.001zM438.857 106.423c-11.786-2.1-20.619-12.27-20.619-24.503s8.833-22.403 20.469-24.481l0.151-0.022h487.863c11.786 2.1 20.619 12.27 20.619 24.503s-8.833 22.403-20.469 24.481l-0.151 0.022z" />
<glyph unicode="&#xe925;" glyph-name="tile" d="M51.469 960h357.977c28.425 0 51.469-23.043 51.469-51.469v-357.977c0-28.425-23.043-51.469-51.469-51.469h-357.977c-28.425 0-51.469 23.043-51.469 51.469v357.977c0 28.425 23.043 51.469 51.469 51.469zM51.469 396.915h357.977c28.425 0 51.469-23.043 51.469-51.469v-357.977c0-28.425-23.043-51.469-51.469-51.469h-357.977c-28.425 0-51.469 23.043-51.469 51.469v357.977c0 28.425 23.043 51.469 51.469 51.469zM614.554 396.915h357.977c28.425 0 51.469-23.043 51.469-51.469v-357.977c0-28.425-23.043-51.469-51.469-51.469h-357.977c-28.425 0-51.469 23.043-51.469 51.469v357.977c0 28.425 23.043 51.469 51.469 51.469zM614.554 960h357.977c28.425 0 51.469-23.043 51.469-51.469v-357.977c0-28.425-23.043-51.469-51.469-51.469h-357.977c-28.425 0-51.469 23.043-51.469 51.469v357.977c0 28.425 23.043 51.469 51.469 51.469z" />
<glyph unicode="&#xe926;" glyph-name="search-3" d="M699.772 493.485c0-128.825-104.433-233.257-233.257-233.257s-233.257 104.433-233.257 233.257c0 128.825 104.433 233.257 233.257 233.257s233.257-104.433 233.257-233.257zM750.311 209.689c6.825 7.26 16.491 11.781 27.213 11.781s20.388-4.521 27.195-11.762l0.018-0.019 17.883-17.106c68.522 80.682 110.194 186.033 110.194 301.117 0 257.649-208.866 466.515-466.515 466.515s-466.515-208.866-466.515-466.515c0-257.649 208.866-466.515 466.515-466.515 115.084 0 220.435 41.671 301.787 110.748l-0.67-0.555-17.106 17.883c-7.26 6.825-11.781 16.491-11.781 27.213s4.521 20.388 11.762 27.195l0.019 0.018zM466.515 182.475c-171.766 0-311.010 139.244-311.010 311.010s139.244 311.010 311.010 311.010c171.766 0 311.010-139.244 311.010-311.010v0c0-171.766-139.244-311.010-311.010-311.010v0zM1010.782 2.867l-189.716 189.716-17.883 17.106c-6.965 6.965-16.586 11.272-27.213 11.272-21.255 0-38.486-17.231-38.486-38.486 0-10.627 4.308-20.249 11.272-27.213v0l17.106-17.883 191.271-188.161c7.158-7.183 17.052-11.635 27.986-11.663h0.005c10.1 0.58 19.084 4.932 25.651 11.655l0.007 0.008c6.647 6.963 10.737 16.416 10.737 26.825s-4.090 19.862-10.752 26.84l0.014-0.015z" />
<glyph unicode="&#xe927;" glyph-name="tel-2" d="M914.286 165.79v-137.752c0.004-0.294 0.006-0.642 0.006-0.99 0-13.128-2.923-25.573-8.153-36.72l0.223 0.53c-5.118-12.066-12.566-22.251-21.849-30.395l-0.094-0.081c-16.145-14.974-37.842-24.162-61.684-24.162-2.962 0-5.89 0.142-8.779 0.419l0.368-0.029c-149.204 16.346-284.021 66.623-400.231 142.915l3.431-2.115c-112.026 71.24-204.438 163.263-273.999 271.382l-2.116 3.513c-74.561 113.085-125.068 248.332-141.049 393.967l-0.361 4.052c-0.281 2.644-0.441 5.712-0.441 8.817 0 10.834 1.949 21.212 5.516 30.804l-0.199-0.611c4.382 12.484 10.812 23.233 18.979 32.4l-0.084-0.095c8.666 9.044 18.978 16.429 30.466 21.689l0.62 0.254c9.913 4.287 21.455 6.78 33.58 6.78 1.266 0 2.526-0.027 3.779-0.081l-0.179 0.006h137.752c23.236-0.006 44.535-8.293 61.109-22.069l-0.156 0.126c16.502-14.111 27.837-33.843 31.029-56.201l0.057-0.485c6.078-48.097 17.415-91.737 33.593-132.945l-1.289 3.725c3.627-9.465 5.728-20.413 5.728-31.852 0-6.854-0.754-13.533-2.184-19.956l0.114 0.609c-4.014-17.909-12.577-33.411-24.412-45.747l0.032 0.033-60.952-57.905c66.574-115.742 160.192-209.164 272.548-273.62l3.566-1.885 60.952 60.952c12.303 11.804 27.805 20.367 45.075 24.26l0.64 0.121c5.631 1.305 12.096 2.052 18.736 2.052 11.7 0 22.858-2.322 33.039-6.529l-0.575 0.21c37.316-14.217 80.938-25.319 126.162-31.361l3.058-0.334c44.827-7.006 78.719-45.343 78.719-91.595 0-1.442-0.033-2.877-0.098-4.303l0.007 0.202zM768 508.952c-0.104-0.001-0.226-0.002-0.349-0.002-8.279 0-15.738 3.512-20.968 9.128l-0.016 0.017c-5.691 5.351-9.235 12.928-9.235 21.333s3.544 15.983 9.22 21.319l0.015 0.014c4.832 6.625 7.731 14.929 7.731 23.91 0 4.078-0.598 8.016-1.71 11.732l0.074-0.289c-11.708 45.676-46.972 80.939-91.764 92.455l-0.884 0.193c-3.427 1.038-7.365 1.636-11.443 1.636-8.981 0-17.284-2.899-24.026-7.812l0.117 0.081c-5.46-5.46-13.002-8.837-21.333-8.837-16.662 0-30.17 13.508-30.17 30.17 0 8.331 3.377 15.874 8.837 21.333v0c17.155 16.031 40.269 25.875 65.683 25.875 8.056 0 15.882-0.989 23.361-2.853l-0.663 0.14c69.199-17.561 122.63-70.991 139.904-138.862l0.287-1.328c2.697-8.464 4.252-18.2 4.252-28.299 0-23.642-8.519-45.295-22.656-62.055l0.118 0.144c-5.257-5.74-12.785-9.326-21.151-9.326-1.138 0-2.261 0.066-3.365 0.195l0.134-0.013zM932.571 454.095c-0.104-0.001-0.226-0.002-0.349-0.002-8.279 0-15.738 3.512-20.968 9.128l-0.016 0.017c-5.691 5.351-9.235 12.928-9.235 21.333s3.544 15.983 9.22 21.319l0.015 0.014c78.629 79.238 66.438 219.429-27.429 313.905s-234.667 106.057-313.905 27.429c-5.46-5.46-13.002-8.837-21.333-8.837-16.662 0-30.17 13.508-30.17 30.17 0 8.331 3.377 15.874 8.837 21.333v0c102.4 103.010 281.6 90.21 399.238-27.429s130.438-296.838 27.429-399.238c-5.246-5.633-12.705-9.145-20.984-9.145-0.123 0-0.245 0.001-0.368 0.002h0.019z" />
<glyph unicode="&#xe928;" glyph-name="search-2" d="M459.536 40.927c-253.795 0-459.536 205.741-459.536 459.536s205.741 459.536 459.536 459.536c253.795 0 459.536-205.741 459.536-459.536v0c0-253.795-205.741-459.536-459.536-459.536v0zM459.536 883.411c-211.496 0-382.947-171.451-382.947-382.947s171.451-382.947 382.947-382.947c211.496 0 382.947 171.451 382.947 382.947v0c0 211.496-171.451 382.947-382.947 382.947v0zM459.536 194.106c-169.197 0-306.358 137.161-306.358 306.358s137.161 306.358 306.358 306.358c169.197 0 306.358-137.161 306.358-306.358v0c0-169.197-137.161-306.358-306.358-306.358v0zM459.536 730.232c-126.897 0-229.768-102.871-229.768-229.768s102.871-229.768 229.768-229.768c126.897 0 229.768 102.871 229.768 229.768v0c0 126.897-102.871 229.768-229.768 229.768v0zM711.576 194.057l54.157 54.157 258.328-258.328-54.157-54.157-258.328 258.328z" />
<glyph unicode="&#xe929;" glyph-name="facebook" d="M682.329-64c-13.999 0-25.347 11.348-25.347 25.347v0 414.669h101.386l14.194 70.97h-115.58v98.345c0 74.012 71.477 74.012 98.345 74.012h23.319v54.749c-28.7 10.225-61.806 16.161-96.29 16.222h-0.027c-108.99 0-120.65-101.386-120.65-144.982v-97.331h-72.998v-70.97h74.012v-415.683c0-13.999-11.348-25.347-25.347-25.347s-25.347 11.348-25.347 25.347v0 363.976h-74.012v173.37h74.012v47.651c0 119.129 67.422 195.675 171.343 195.675 48.074-0.241 93.695-10.478 134.977-28.734l-2.161 0.853 14.194-6.59v-138.899h-75.026c-47.651 0-47.651-9.125-47.651-23.319v-46.638h127.24l-34.471-172.356h-92.768v-364.99c0-13.999-11.348-25.347-25.347-25.347v0zM901.323-64h-778.646c-67.637 0.287-122.391 55.040-122.677 122.65v778.673c0.287 67.637 55.040 122.391 122.65 122.677h778.673c67.637-0.287 122.391-55.040 122.677-122.65v-778.673c-0.287-67.637-55.040-122.391-122.65-122.677h-0.027zM122.677 909.307c-39.641-0.285-71.699-32.344-71.984-71.957v-778.673c0.285-39.641 32.344-71.699 71.957-71.984h778.673c39.641 0.285 71.699 32.344 71.984 71.957v778.673c-0.285 39.641-32.344 71.699-71.957 71.984h-0.027z" />
<glyph unicode="&#xe92a;" glyph-name="instagram" d="M721.059-64h-418.117c-167.199 0.275-302.666 135.742-302.941 302.915v418.143c0.275 167.199 135.742 302.666 302.915 302.941h418.143c167.199-0.275 302.666-135.742 302.941-302.915v-418.143c-0.275-167.199-135.742-302.666-302.915-302.941h-0.026zM302.941 911.607c-140.472-0.275-254.273-114.076-254.548-254.522v-418.143c0.275-140.472 114.076-254.273 254.522-254.548h418.143c140.472 0.275 254.273 114.076 254.548 254.522v418.143c-0.275 140.472-114.076 254.273-254.522 254.548h-0.026zM512 191.516c-141.652 0-256.484 114.832-256.484 256.484s114.832 256.484 256.484 256.484c141.652 0 256.484-114.832 256.484-256.484v0c-0.275-141.541-114.942-256.209-256.458-256.484h-0.026zM512 656.091c-114.925 0-208.091-93.165-208.091-208.091s93.165-208.091 208.091-208.091c114.925 0 208.091 93.165 208.091 208.091v0c-0.275 114.815-93.276 207.816-208.064 208.091h-0.026zM790.745 680.287c26.727 0 48.393 21.666 48.393 48.393s-21.666 48.393-48.393 48.393c-26.727 0-48.393-21.666-48.393-48.393v0c0-26.727 21.666-48.393 48.393-48.393v0z" />
<glyph unicode="&#xe92b;" glyph-name="twitter" horiz-adv-x="1248" d="M402.434-64c-0.146 0-0.319 0-0.492 0-144.836 0-279.722 42.599-392.814 115.95l2.814-1.711c-7.216 4.692-11.922 12.716-11.922 21.839 0 3.156 0.563 6.18 1.594 8.978l-0.058-0.18c3.67 10.173 13.242 17.315 24.481 17.315 1.072 0 2.128-0.065 3.166-0.191l-0.125 0.012c16.557-2.181 35.832-3.497 55.388-3.634l0.174-0.001c0.541-0.002 1.181-0.004 1.822-0.004 86.038 0 166.579 23.538 235.534 64.525l-2.127-1.171c-87.812 25.577-156.085 91.966-183.797 176.709l-0.543 1.92c-0.902 2.445-1.424 5.269-1.424 8.216 0 6.471 2.518 12.354 6.629 16.722l-0.012-0.013c4.352 4.513 10.451 7.316 17.204 7.316 0.524 0 1.044-0.017 1.56-0.050l-0.070 0.004c-67.703 49.983-111.128 129.477-111.128 219.113 0 0.554 0.002 1.108 0.005 1.662v-0.085c0 0.007 0 0.015 0 0.023 0 9.841 4.889 18.541 12.37 23.802l0.092 0.062c3.724 2.187 8.202 3.478 12.982 3.478s9.258-1.292 13.104-3.545l-0.123 0.066 14.020-7.27c-32.192 43.847-51.624 98.813-51.927 158.304v0.073c0.169 50.311 13.838 97.394 37.57 137.862l-0.701-1.294c3.693 7.445 10.719 12.755 19.073 14.003l0.14 0.017c0.895 0.116 1.93 0.183 2.981 0.183 7.854 0 14.842-3.71 19.306-9.474l0.042-0.056c110.656-134.731 270.64-225.422 451.97-244.33l2.91-0.246c-0.24 4.112-0.377 8.92-0.377 13.761s0.137 9.649 0.407 14.423l-0.030-0.662c0.96 149.259 122.179 269.886 271.573 269.886 71.992 0 137.442-28.013 186.044-73.733l-0.14 0.131c50.832 11.537 95.734 29.431 136.833 53.175l-2.342-1.248c3.959 2.663 8.833 4.25 14.078 4.25 14.052 0 25.444-11.392 25.444-25.444 0-3.206-0.593-6.273-1.675-9.098l0.059 0.174c-10.251-30.956-24.542-57.826-42.573-81.714l0.512 0.708c13.501 4.673 27.002 9.866 39.984 15.578 3.712 2.239 8.195 3.564 12.987 3.564 7.653 0 14.517-3.379 19.182-8.726l0.026-0.030c3.166-4.311 5.066-9.722 5.066-15.578s-1.9-11.267-5.118-15.652l0.052 0.074c-32.447-48.206-70.777-89.344-114.64-123.75l-1.157-0.875c0-6.231 0-12.462 0-19.213 0.027-2.325 0.043-5.071 0.043-7.821 0-396.050-321.062-717.112-717.112-717.112-2.389 0-4.775 0.012-7.158 0.035l0.364-0.003zM131.375 44.527c79.674-35.766 172.693-56.601 270.579-56.601 0.169 0 0.338 0 0.507 0h-0.027c2.788-0.042 6.080-0.066 9.377-0.066 367.658 0 665.704 298.046 665.704 665.704 0 2.214-0.011 4.426-0.032 6.635l0.003-0.337c0 10.385 0 20.771 0 31.156-0.002 0.116-0.003 0.253-0.003 0.391 0 8.772 4.265 16.547 10.834 21.367l0.074 0.052c22.723 16.404 42.73 33.445 61.287 51.94l-0.013-0.013c-17.009-4.522-37.98-8.53-59.371-11.179l-2.422-0.245c-0.861-0.101-1.859-0.159-2.87-0.159-11.425 0-21.126 7.379-24.598 17.631l-0.054 0.183c-0.928 2.533-1.464 5.457-1.464 8.507 0 9.436 5.136 17.671 12.765 22.065l0.123 0.065c24.544 14.787 45.219 33.311 61.929 55.043l0.383 0.519c-26.751-10.483-58.478-19.483-91.258-25.471l-3.249-0.493c-1.639-0.393-3.521-0.618-5.456-0.618-7.344 0-13.931 3.244-18.405 8.378l-0.025 0.029c-40.438 42.448-97.341 68.896-160.423 69.063h-0.031c-0.154 0-0.337 0.001-0.52 0.001-121.414 0-219.875-98.278-220.17-219.623v-0.028c-0.001-0.306-0.002-0.668-0.002-1.031 0-18.045 2.082-35.603 6.020-52.448l-0.306 1.552c0.49-1.846 0.771-3.966 0.771-6.151 0-6.19-2.256-11.853-5.992-16.211l0.028 0.034c-4.702-5.752-11.797-9.394-19.743-9.394-0.544 0-1.084 0.017-1.62 0.051l0.073-0.004c-198.158 10.866-373.591 99.977-497.433 236.693l-0.547 0.613c-8.876-22.609-14.020-48.791-14.020-76.174 0-0.056 0-0.112 0-0.168v0.009c0.071-75.964 38.692-142.892 97.353-182.284l0.789-0.499c6.808-4.748 11.207-12.541 11.207-21.362 0-2.947-0.491-5.779-1.395-8.419l0.054 0.183c-3.761-10.645-13.723-18.141-25.44-18.174h-0.004c-28.826 1.303-55.962 6.714-81.431 15.666l1.983-0.607c16.032-88.62 83.563-157.896 169.924-176.296l1.435-0.256c11.507-2.588 20.087-12.404 20.768-24.335l0.003-0.070c0-0.032 0-0.071 0-0.109 0-12.135-8.005-22.4-19.022-25.803l-0.191-0.051c-20.596-6.016-44.256-9.477-68.724-9.477-2.858 0-5.705 0.047-8.54 0.141l0.413-0.011c37.305-67.688 107.729-113.056 188.85-114.237l0.164-0.002c11.026-0.468 20.27-7.61 23.828-17.471l0.058-0.185c0.848-2.506 1.338-5.393 1.338-8.394 0-8.285-3.732-15.699-9.606-20.652l-0.041-0.033c-75.477-59.598-169.48-98.927-272.137-108.376l-2.038-0.151z" />
<glyph unicode="&#xe92c;" glyph-name="linkedin" d="M901.323-64h-778.646c-67.637 0.287-122.391 55.040-122.677 122.65v778.673c0.287 67.637 55.040 122.391 122.65 122.677h778.673c67.637-0.287 122.391-55.040 122.677-122.65v-778.673c-0.287-67.637-55.040-122.391-122.65-122.677h-0.027zM122.677 909.307c-39.641-0.285-71.699-32.344-71.984-71.957v-778.673c0.285-39.641 32.344-71.699 71.957-71.984h778.673c39.641 0.285 71.699 32.344 71.984 71.957v778.673c-0.285 39.641-32.344 71.699-71.957 71.984h-0.027zM317.339 81.996h-145.996c-13.999 0-25.347 11.348-25.347 25.347v0 462.321c0 13.999 11.348 25.347 25.347 25.347v0h145.996c13.999 0 25.347-11.348 25.347-25.347v0-462.321c0-13.999-11.348-25.347-25.347-25.347v0zM196.689 132.689h95.303v411.628h-95.303zM244.341 617.315c-2.148-0.18-4.65-0.283-7.175-0.283-49.068 0-89.090 38.73-91.163 87.287l-0.006 0.188c2.272 47.742 41.532 85.588 89.631 85.588 3.068 0 6.101-0.154 9.090-0.455l-0.377 0.031c2.343 0.215 5.067 0.338 7.82 0.338 47.915 0 87.155-37.137 90.508-84.198l0.017-0.29c-0.933-49.115-40.968-88.573-90.218-88.573-2.861 0-5.691 0.133-8.484 0.394l0.358-0.027zM244.341 738.978c-28.388 0-47.651-13.687-47.651-34.471s19.77-36.499 47.651-36.499 47.651 14.194 47.651 36.499-19.263 34.471-47.651 34.471zM852.657 81.996h-145.996c-13.999 0-25.347 11.348-25.347 25.347v0 243.327c0.423 2.762 0.665 5.947 0.665 9.19 0 34.262-26.976 62.223-60.847 63.803l-0.142 0.005c-1.259 0.111-2.723 0.174-4.202 0.174-13.501 0-25.77-5.278-34.855-13.883l0.023 0.022c-12.661-14.84-20.364-34.245-20.364-55.449 0-1.358 0.032-2.709 0.094-4.052l-0.007 0.19v-243.327c0-13.999-11.348-25.347-25.347-25.347v0h-145.996c-13.999 0-25.347 11.348-25.347 25.347v0 462.321c0 13.999 11.348 25.347 25.347 25.347v0h145.996c13.999 0 25.347-11.348 25.347-25.347v0-7.604c32.145 20.679 71.392 32.966 113.508 32.966 0.907 0 1.812-0.006 2.716-0.017l-0.137 0.001c121.663 0 200.238-88.713 200.238-226.598v-261.069c0-13.999-11.348-25.347-25.347-25.347v0zM732.008 132.689h95.303v235.723c0 108.483-57.283 175.905-149.545 175.905-1.76 0.071-3.826 0.112-5.902 0.112-45.584 0-86.605-19.534-115.149-50.688l-0.105-0.117c-4.673-6.184-12.013-10.139-20.277-10.139-13.999 0-25.347 11.348-25.347 25.347v0 35.485h-95.303v-411.628h96.317v217.98c-0.043 1.271-0.068 2.765-0.068 4.264 0 35.17 13.515 67.183 35.636 91.13l-0.083-0.091c19.431 17.618 45.341 28.402 73.77 28.402 0.62 0 1.238-0.005 1.856-0.015l-0.093 0.001c61.333-1.42 110.509-51.476 110.509-113.017 0-3.758-0.183-7.474-0.542-11.138l0.037 0.464z" />
<glyph unicode="&#xe92d;" glyph-name="email-2" horiz-adv-x="1265" d="M954.729 393.788l249.976-237.327v595.125l-357.195-249.976 107.219-107.821zM417.431 501.609l-357.195 249.976v-595.125l250.579 237.929 106.616 107.219zM1203.501 823.868c-7.443 43.158-44.464 75.617-89.119 75.896h-963.795c-44.685-0.28-81.706-32.739-89.071-75.355l-0.077-0.541 571.031-399.36zM797.515 466.673l-147.576-103.605c-4.879-3.411-10.935-5.45-17.468-5.45s-12.589 2.039-17.568 5.516l0.1-0.066-147.576 103.605-115.049-115.049-290.936-277.082c6.131-44.314 43.663-78.099 89.127-78.306h963.787c45.486 0.207 83.018 33.992 89.094 77.833l0.054 0.473-290.334 276.48zM1114.353 960h-963.765c-83.168 0-150.588-67.421-150.588-150.588v0-722.824c0-83.168 67.421-150.588 150.588-150.588v0h963.765c83.168 0 150.588 67.421 150.588 150.588v0 0c0.009-0.271 0.015-0.59 0.015-0.909 0-7.895-3.232-15.035-8.444-20.17l-0.003-0.003c-5.317-5.927-13.001-9.638-21.551-9.638-0.047 0-0.094 0-0.141 0h0.007c-7.981 0.049-15.202 3.258-20.485 8.438l0.005-0.005-10.842 9.638c-6.405-44.056-43.841-77.541-89.131-77.703h-963.782c-45.486 0.207-83.018 33.992-89.094 77.833l-0.054 0.473-10.842-9.638c-5.278-5.175-12.499-8.384-20.47-8.433h-0.010c-0.040 0-0.087 0-0.134 0-8.55 0-16.233 3.711-21.527 9.611l-0.024 0.027c-5.469 5.361-8.859 12.826-8.859 21.082s3.39 15.721 8.854 21.078l0.005 0.005 50.598 48.188v592.715l-47.586 33.129c-7.774 5.548-12.782 14.537-12.782 24.696 0 16.707 13.543 30.25 30.25 30.25 6.548 0 12.609-2.080 17.56-5.616l-0.092 0.062 13.854-10.24c6.425 44.497 44.3 78.306 90.071 78.306 0.099 0 0.198 0 0.297 0h963.75c44.685-0.28 81.706-32.739 89.071-75.355l0.077-0.541 13.854 10.24c4.859 3.473 10.921 5.553 17.468 5.553 16.707 0 30.25-13.543 30.25-30.25 0-10.159-5.008-19.148-12.69-24.634l-0.092-0.062-47.586-35.539v-595.125l50.598-48.188c5.814-5.215 9.497-12.705 9.637-21.058v-0.025 724.631c0 83.168-67.421 150.588-150.588 150.588v0z" />
<glyph unicode="&#xe92e;" glyph-name="map-2" horiz-adv-x="677" d="M338.432 960c-187.92-4.548-338.521-157.965-338.521-346.556 0-2.754 0.032-5.5 0.096-8.238l-0.008 0.407c0-154.229 209.828-505.231 299.271-647.856 8.889-12.175 23.112-19.995 39.161-19.995s30.272 7.82 39.066 19.858l0.095 0.137c89.443 142.625 299.271 493.628 299.271 647.856 0.056 2.331 0.088 5.077 0.088 7.831 0 188.592-150.601 342.008-338.1 346.548l-0.421 0.008zM338.432 476.525c-80.105 0-145.042 64.938-145.042 145.042s64.938 145.042 145.042 145.042c80.105 0 145.042-64.938 145.042-145.042v0c0-80.105-64.938-145.042-145.042-145.042v0zM435.127 621.568c0-53.403-43.292-96.695-96.695-96.695s-96.695 43.292-96.695 96.695c0 53.403 43.292 96.695 96.695 96.695s96.695-43.292 96.695-96.695z" />
</font>
</defs>
</svg>
